Tổng hợp DVD và Video Clip của ca sĩ Cẩm Ly - Mua Bán key bản quyền Windows Server 2012 - Windows 10 -Kaspersky - Office -Visio -SQL

728x90 AdSpace

http://lh3.ggpht.com/-PE2fb8WF1XI/VfL9f7IygsI/AAAAAAAAN-E/Fj9gFp7BZFo/s1600-r/Logo.png
Trending
Thursday, August 7, 2014

Tổng hợp DVD và Video Clip của ca sĩ Cẩm Ly



Tổng hợp DVD và Video Clip của ca sĩ Cẩm Ly

Format                                   : MPEG-4
Format profile                           : Base Media
Codec ID                                 : isom
File size                                : 116 MiB
Duration                                 : 6mn 10s
Overall bit rate mode                    : Constant
Overall bit rate                         : 2 630 Kbps
Writing application                      : Lavf54.59.106

Video
ID                                       : 1
Format                                   : MPEG-4 Visual
Format profile                           : Simple@L1
Format settings, BVOP                    : No
Format settings, QPel                    : No
Format settings, GMC                     : No warppoints
Format settings, Matrix                  : Default (H.263)
Codec ID                                 : 20
Duration                                 : 6mn 10s
Bit rate mode                            : Constant
Bit rate                                 : 2 495 Kbps
Width                                    : 720 pixels
Height                                   : 480 pixels
Display aspect ratio                     : 3:2
Frame rate mode                          : Constant
Frame rate                               : 29.970 fps
Standard                                 : NTSC
Color space                              : YUV
Chroma subsampling                       : 4:2:0
Bit depth                                : 8 bits
Scan type                                : Progressive
Compression mode                         : Lossy
Bits/(Pixel*Frame)                       : 0.241
Stream size                              : 110 MiB (95%)
Writing library                          : Lavc54.86.100

Audio
ID                                       : 2
Format                                   : AAC
Format/Info                              : Advanced Audio Codec
Format profile                           : LC
Codec ID                                 : 40
Duration                                 : 6mn 10s
Bit rate mode                            : Constant
Bit rate                                 : 128 Kbps
Channel count                            : 2 channels
Channel positions                        : Front: L R
Sampling rate                            : 44.1 KHz
Compression mode                         : Lossy
Stream size                              : 5.66 MiB (5%)

 DVD1
A mang giấc mơ về đâu.mp4
bài ca yêu đời.mp4
Bến vắng.mp4
Biển tình yêu.mp4
Biệt ly.mp4
Biết yêu khi nào.mp4
Bờ bến lạ.mp4
Bông điên điển.mp4
Buồn lý chờ mong.mp4
Buồn trong kỷ niệm.mp4
Cafe miệt vườn.mp4
Cánh chim lạc loài.mp4
Chiếc bóng.mp4
Chiều mưa qua sông.mp4
Cho e lời cuối.mp4
Chồng xa.mp4
Chuttinhmongmanh.mp4
Chuyentinhbuonnguoicongai-Camly.mp4
Có lẽ.mp4
Có những chiều em đến.mp4
Co1nguoiyeuem-Camly.mp4
Còn lại đây mình em.mp4
Cơn mơ hoang đường.mp4
Cuộc tình đơn côi.mp4
Đà Lạt hoàng hôn.mp4
Đam mê.mp4
Dáu vết tình sầu.mp4
Dauchontinhbuon.mp4
Để ko còn xa nhau.mp4
Đêm cô đơn.mp4
Đêm lang thang.mp4
Đò xưa.mp4
Đôi ngả chia ly.mp4
Doiemtantruong.mp4
Dòng sôn mùa đông.mp4
Đừng gọi Fone và nhắn tin.mp4
Duyên quê.mp4
Emdiquacaucay.mp4


DVD 2

A về kẻo trời mưa.mp4
Caybadau.mp4
Đừng nói xa nhau.mp4
Đường xưa lối cũ.mp4
E ko thể quên.mp4
E mãi là người tình.mp4
E sẽ quên.mp4
Giấc mơ tà áo trắng.mp4
Giáng hương.mp4
Gió bấc.mp4
Gửi người tôi yêu.mp4
Hinhanhnguoiemkhongdoi.mp4
Hoa Sen.mp4
Hoài Công.mp4
Hứa đi anh.mp4
Không bao giờ quên anh.mp4
Khung trời ngày xưa.mp4
Lá úa.mp4
Lam.mp4
Lặng lẽ gọi tên.mp4
LangThangInternet.mp4
Lâu đài tình ái.mp4
LK-Em chưa biết yêu-Biết yêu khi nào.mp4
Lý mười thương.mp4
Má núm đồng tiền.mp4
Mất nhau rồi.mp4
Mất nhau.mp4
Màu của tình yêu.mp4
Mây chiều.mp4
Mẹ.mp4
Một lần dang dở.mp4
Mưa buồn.mp4
Mùa đông trắng.mp4
Mùa đông xứ lạ.mp4
Mưa phố.mp4
Mưa rơi.mp4
Mùa thu kỷ niệm.mp4
Mùa xuân đầu tiên.mp4
Mucanhtrangvang.mp4
Nếu phôi pha ngày mai.mp4
Ngã 3 tình.mp4
Nganngoaotrang.mp4
Ngày đó xa nhau.mp4
Ngày về.mp4
Người em gái nhỏ.mp4
Người hay hứa với tôi.mp4
Người phương xa.mp4

DVD 3

Người về cuối phố.mp4
Nhạt nắng.mp4
Nhớ a mấy mùa.mp4
Nhớ người yêu.mp4
Nhớ nhà.mp4
Nhunganhchangngonhan.mp4
Nỗi buồn của mẹ.mp4
Nỗi buồn hoa phượng.mp4
Nỗi đau ngày qua.mp4
Nửa trái tim.mp4
Phố cũ vắng anh.mp4
Phố hoa.mp4
Phút cuối.mp4
Qua rồi phút đam mê.mp4
Quê e.mp4
Ru lại câu hò.mp4
Ru tình về với quê hương.mp4
Sáo sang sông.mp4
Siết chặt bàn tay.mp4
Sớm chồng.mp4
Thà rằng chia tay.mp4
Thao thức vì anh 2.mp4
Thao thức vì anh.mp4
Thương nhau lý tơ hồng.mp4
Thương về cố đô.mp4
Tiếng thạch sùng.mp4
Tiếu ngạo giang hồ.mp4
Tình hồng như mơ.mp4
Tinhcuoimuadong.mp4
Tinhdautinhcuoi.mp4
Tinhlebong.mp4
Tinhtrongmo.mp4
Tinhyeudautien.mp4
Tinhyeumongmanh.mp4
Tinhyeutralaitrangsao.mp4
Trolaiphocu.mp4
Tromnhinnhau.mp4
Trovecatbui.mp4
Trumua.mp4
Tuoidoimuoi.mp4
Tuongtu.mp4
Veduoimainha.mp4
VemienTay.mp4
Vetbuithoigian.mp4
Vonguatrendoiconon.mp4
VothangDau.mp4
Xinbinhyenvequaday.mp4
Xinduoclamtinhcuoi.mp4
Xingoinhaulaconhan.mp4
Xinmotlanthoi.mp4
Xintralaithoigian.mp4




http://2.bp.blogspot.com/-kSOFggsYY-k/U7Fp7boH1zI/AAAAAAAAF48/Sisj5VAOQgw/s1600/Download+Key4VIP.info.png

Link 4Share.Vn:
http://up.4share.vn/d/546761676c6d626d
Link Mega
https://mega.co.nz/#F!cdxCQbya!c8wgXkekHFuXfjbZu8YOpA
 Tổng hợp các ca sĩ khác tại:http://up.4share.vn/d/4b787e787c7d737b
. www.Key4VIP.info ~~~~~~~~~ Trang chia sẻ phần mềm,Video học quản trị mạng,Thủ thuật máy tính,đồ họa....Bán key phần mềm bản quyền Windows Server và các ứng dụng Server bảo hành Vĩnh Viễn.

Hãy Click vào nút G+1 và Like ở dưới đây để chúng tôi có THÊM ĐỘNG LỰC chia sẻ nhiều hơn nữa.

Tổng hợp DVD và Video Clip của ca sĩ Cẩm Ly Reviewed by Phùng Hữu Long on 5:11:00 PM Rating: 5 Format                                   : MPEG-4 Format profile                           :...

No comments: