Transformers.Age.of.Extinction.2014.ViE.mHD.BluRay .DD5.1.x264-EPiK ( Thuyết Minh + Sub Việt),Kỷ Nguyên Hủy Diệt - Mua Bán key bản quyền Windows Server 2012 - Windows 10 -Kaspersky - Office -Visio -SQL

728x90 AdSpace

http://lh3.ggpht.com/-PE2fb8WF1XI/VfL9f7IygsI/AAAAAAAAN-E/Fj9gFp7BZFo/s1600-r/Logo.png
Trending
Saturday, September 20, 2014

Transformers.Age.of.Extinction.2014.ViE.mHD.BluRay .DD5.1.x264-EPiK ( Thuyết Minh + Sub Việt),Kỷ Nguyên Hủy Diệt




Transformers: Age of Extinction (2014)
Thông tin:
--------------------------------------------------------------------------------------------------------------------
Đánh giá: N/A (N/A votes)
Ngôn ngữ: English
Quốc gia: USA, China
Thời lượng: N/A
Thể loại: Action, Adventure, Sci-Fi
Đạo diễn: Michael Bay
Kịch bản: Ehren Kruger
Diễn viên: Nicola Peltz, Mark Wahlberg, Stanley Tucci, King
Complete name : Transformers.Age.of.Extinction.2014.ViE.mHD.BluRay .DD5.1.x264-EPiK.mkv[/url]
Format : Matroska
Format version : Version 4 / Version 2
File size : 4.86 GiB
Duration : 2h 45mn
Overall bit rate : 4 209 Kbps
Movie name : Transformers.Age.of.Extinction.2014
Encoded date : UTC 2014-09-20 06:04:25
Writing application : mkvmerge v7.2.0 ('On Every Street') 32bit built on Sep 13 2014 15:42:11
Writing library : libebml v1.3.0 + libmatroska v1.4.1
DURATION : 02:45:07.360000000
NUMBER_OF_FRAMES : 309605
NUMBER_OF_BYTES : 792588800
_STATISTICS_WRITING_APP : mkvmerge v7.2.0 ('On Every Street') 32bit built on Sep 13 2014 15:42:11
_STATISTICS_WRITING_DATE_UTC : 2014-09-20 06:04:25
_STATISTICS_TAGS : BPS DURATION NUMBER_OF_FRAMES NUMBER_OF_BYTES

Video
ID : 1
Format : AVC
Format/Info : Advanced Video Codec
Format profile : High@L4.1
Format settings, CABAC : Yes
Format settings, ReFrames : 12 frames
Codec ID : V_MPEG4/ISO/AVC
Duration : 2h 45mn
Bit rate : 2 846 Kbps
Width : 1 280 pixels
Height : 534 pixels
Display aspect ratio : 2.40:1
Frame rate mode : Constant
Frame rate : 23.976 fps
Color space : YUV
Chroma subsampling : 4:2:0
Bit depth : 8 bits
Scan type : Progressive
Bits/(Pixel*Frame) : 0.174
Stream size : 3.28 GiB (68%)
Title : Transformers.Age.of.Extinction.2014
Writing library : x264 core 133 r2334 a3ac64b


Audio #1
ID : 2
Format : AC-3
Format/Info : Audio Coding 3
Mode extension : CM (complete main)
Format settings, Endianness : Big
Codec ID : A_AC3
Duration : 2h 45mn
Bit rate mode : Constant
Bit rate : 640 Kbps
Channel count : 6 channels
Channel positions : Front: L C R, Side: L R, LFE
Sampling rate : 48.0 KHz
Bit depth : 16 bits
Compression mode : Lossy
Stream size : 756 MiB (15%)
Title : thuyet minh
Language : Vietnamese
Default : Yes
Forced : No

Audio #2
ID : 3
Format : AC-3
Format/Info : Audio Coding 3
Mode extension : CM (complete main)
Format settings, Endianness : Big
Codec ID : A_AC3
Duration : 2h 45mn
Bit rate mode : Constant
Bit rate : 640 Kbps
Channel count : 6 channels
Channel positions : Front: L C R, Side: L R, LFE
Sampling rate : 48.0 KHz
Bit depth : 16 bits
Compression mode : Lossy
Stream size : 756 MiB (15%)
Title : English AC-3 DD5.1 640 Kbps
Language : English
Default : No
Forced : No

Text #1
ID : 4
Format : UTF-8
Codec ID : S_TEXT/UTF8
Codec ID/Info : UTF-8 Plain Text
Title : PDV-SRT
Language : Vietnamese
Default : Yes
Forced : No

Text #2
ID : 5
Format : UTF-8
Codec ID : S_TEXT/UTF8
Codec ID/Info : UTF-8 Plain Text
Language : English
Default : No
Forced : No
Nội dung!

Transformers 4: Kỷ Nguyên Hủy Diệt - Transformers: Age of Extinction:
TRANSFORMERS 4 được bắt đầu sau 4 năm về trận chiến ở Los Angeles trong phần trước Transformers: Dark of the Moon. Câu chuyện mở màn bởi những lời đồn đại về một thợ cơ khí và con gái của ông ta đã phát hiện ra một bí mật có thể khiến cả Autobots, Decepticons, và chính phủ Hoa Kỳ bị đe dọa. Không chỉ dừng lại ở đó, ở phần này, câu chuyện sẽ dẫn người xem đến những ngã rẻ hoàn toàn mới và cũng vô vàn những bất ngờ. Trở lại với dàn diễn viên mới gồm Mark Wahlberg, Nicola Peltz, Jack Reynor… và sự cống hiến của đạo diễn tên tuổi Michael Bay, bộ phim chắc chắn sẽ là một quả bom khuấy động tất cả các rạp trong mùa hè 2014.

Đây là dự án thứ 2 hãng Paramount hợp tác sản xuất cùng Trung Quốc sau phim Iron Man 3. Paramout đã hợp tác cùng với đội ngũ sản xuất China Move Channel và Jiaflix Enterprises để thực hiện quay các bối cảnh phim trường tại Trung Quốc.

Vào ngày 14 – 7 – 2013, đạo diễn lừng danh Hollywood Michael Bay và hãng Paramount Pictures đã công bố việc mời ngôi sao Trung Quốc Han Geng góp mặt trong siêu phẩm TRANSFORMERS: KỶ NGUYÊN HỦY DIỆT Là một trong số những nghệ sỹ hàng đầu của châu Á hiện nay, Han Geng đã chinh phục được khán giả của nhiều lĩnh vực như ca nhạc, điện ảnh, truyền hình…và trở thành một biểu tượng có sức ảnh hưởng lớn nhất trong làng giải trí Trung Quốc.

Trong TRANSFORMERS: KỶ NGUYÊN HỦY DIỆT Han Geng sẽ có cơ hội được sánh vai cùng với các tên tuổi nổi tiếng ở Hollywood như Mark Wahlberg, Stanley Tucci, Kelsey Grammer, Jack Reynor, Nicola Peltz, Sophia Myles, TJ Miller và Hoa đán Lý Băng Băng tham gia trong phần 4 của siêu phẩm ăn khách bậc nhất này. Hãng Paramount Picture dự kiến sẽ cho ra mắt bộ phim vào ngày 27 – 6 – 2014.


http://2.bp.blogspot.com/-kSOFggsYY-k/U7Fp7boH1zI/AAAAAAAAF48/Sisj5VAOQgw/s1600/Download+Key4VIP.info.png

Link 4Share.Vn:( Bản thuyết Minh)
http://4share.vn/f/4370767a7a77757b/Transformers.Age.of.Extinction.2014.ViE.mHD.BluRay.DD5.1.x264-EPiK.mkv.file


www.Key4VIP.info bán Ac 4Share.Vn 1 năm không giới hạn BW,tải thoải mái.
 www.Key4VIP.info ~~~~~~~~~ Trang chia sẻ phần mềm,Video học quản trị mạng,Thủ thuật máy tính,đồ họa....Bán key phần mềm bản quyền Windows Server và các ứng dụng Server bảo hành Vĩnh Viễn.
www.Key4VIP.info bán key bản quyền Window Server 2003,2008 R2,2012 R2 Standar Enterprise WebEdition Datacenter Foundation Essentials bảo hành Vĩnh Viễn!

Bán key bản quyền Kaspersky cho Server và Client,Bitdefender,Trendmicro,Avast

Bán key bản quyền Windows XP,Windows 7,Windows 8 và Windows 8.1,Office 2007,Office 2010,Office 2013 và các ứng dụng Server như SQL Server,TMG,SharePoint Server,Exchange Server. Hãy Click vào nút G+1 và Like ở dưới đây để chúng tôi có THÊM ĐỘNG LỰC chia sẻ nhiều hơn nữa.

Transformers.Age.of.Extinction.2014.ViE.mHD.BluRay .DD5.1.x264-EPiK ( Thuyết Minh + Sub Việt),Kỷ Nguyên Hủy Diệt Reviewed by Phùng Hữu Long on 5:50:00 PM Rating: 5 Transformers: Age of Extinction (2014) Thông tin: ---------------------------------------...

No comments: