Hài Tết năm 2015 - Tôi đi tìm tôi Full HD Download ( đủ 2 phần ) - Mua Bán key bản quyền Windows Server 2012 - Windows 10 -Kaspersky - Office -Visio -SQL

728x90 AdSpace

http://lh3.ggpht.com/-PE2fb8WF1XI/VfL9f7IygsI/AAAAAAAAN-E/Fj9gFp7BZFo/s1600-r/Logo.png
Trending
Wednesday, January 21, 2015

Hài Tết năm 2015 - Tôi đi tìm tôi Full HD Download ( đủ 2 phần )

Hai tet 2015\Hài Tết 2015 - Tôi Đi Tìm Tôi Full HD Phần 1.mp4
Format                                   : MPEG-4
Format profile                           : Base Media
Codec ID                                 : isom
File size                                : 2.10 GiB
Duration                                 : 1h 14mn
Overall bit rate mode                    : Variable
Overall bit rate                         : 4 043 Kbps
Encoded date                             : UTC 2014-12-29 04:37:56
Tagged date                              : UTC 2014-12-29 04:37:56

Video
ID                                       : 1
Format                                   : AVC
Format/Info                              : Advanced Video Codec
Format profile                           : High@L4.0
Format settings, CABAC                   : Yes
Format settings, ReFrames                : 2 frames
Codec ID                                 : avc1
Codec ID/Info                            : Advanced Video Coding
Duration                                 : 1h 14mn
Bit rate                                 : 3 914 Kbps
Width                                    : 1 920 pixels
Height                                   : 1 080 pixels
Display aspect ratio                     : 16:9
Frame rate mode                          : Constant
Frame rate                               : 25.000 fps
Color space                              : YUV
Chroma subsampling                       : 4:2:0
Bit depth                                : 8 bits
Scan type                                : Progressive
Bits/(Pixel*Frame)                       : 0.076
Stream size                              : 2.03 GiB (97%)
Encoded date                             : UTC 2014-12-29 04:37:56
Tagged date                              : UTC 2014-12-29 04:37:56

Audio
ID                                       : 2
Format                                   : AAC
Format/Info                              : Advanced Audio Codec
Format profile                           : LC
Codec ID                                 : 40
Duration                                 : 1h 14mn
Bit rate mode                            : Variable
Bit rate                                 : 126 Kbps
Channel(s)                               : 2 channels
Channel positions                        : Front: L R
Sampling rate                            : 44.1 KHz
Compression mode                         : Lossy
Stream size                              : 66.7 MiB (3%)
Encoded date                             : UTC 2014-12-29 04:37:38
Tagged date                              : UTC 2014-12-29 04:37:38



Phim Hài tết 2015 Tôi đi tìm tôi của hãng phim Bình Minh ra mắt năm 2015 tiếp nối thành công của hai bộ phim Đại gia chân đất và Làng ế vợ. Vừa mới ra mắt cách đây vài ngày, bộ phim đã thu hút nhiều lượt tìm kiếm của khán giả Việt.

Nội dung xoay quanh chuyện của hai nhân vật Sướng và Xung do hai nghệ sĩ Quang Tèo và Chiến Thắng đảm nhận. Họ cùng sống tại một vùng quê yên bình, nhưng đến một ngày làng bỗng xuất hiện một doanh nhân thành đạt lại có bề ngoài giống hệt với anh Sướng.


Là một người có tham vọng, anh Sướng cũng muốn mình trở nên giàu có như doanh nhân, anh ta liền cho anh Sướng được như những gì anh ta mong muốn. Vì có ngoại hình giống nhau, nên doanh nhân thuê anh Sướng thay mặt mình đi tiếp khách chỉ ăn uống, nhậu nhẹt. Sướng rủ cả bạn thân của mình là Xung đi cùng. Từ đó cuộc sống của họ đã thay đổi hoàn toàn, nhưng vì bản tính chân chất, cả Sung và Xướng cảm thấy mình không phù hợp với lối sống xa hoa, họ quyết định trở lại quê nhà.


Chính những tình tiết dí dỏm, hài hước mà Chiến Thắng và Quang Tèo đã mang lại cho người xem những trận cười sảng khoái, những giây phút thư giãn trong những ngày nghỉ lễ sắp tới.
Bộ phim có sự góp mặt của nhiều danh hài nổi tiếng miền Bắc như NSUT Tiến Quang (Quang Tèo), NS Chiến Thắng, NS Vân Anh, NS Bình Trọng, NS Thu Huyền, NS Hải Anh, …

http://2.bp.blogspot.com/-kSOFggsYY-k/U7Fp7boH1zI/AAAAAAAAF48/Sisj5VAOQgw/s1600/Download+Key4VIP.info.png

Link 4Share.Vn:

http://up.4share.vn/d/724145454441454b
Link FShare.Vn







www.Key4VIP.info Bán key bản quyền Window Server 2003, Bán key bản quyền Window Server 2008 R2, Bán key bản quyền Window Server 2012 R2 Standar Enterprise WebEdition Datacenter Foundation Essentials bảo hành Vĩnh Viễn!
Bán key bản quyền Window 7,Bán key bản quyền Window 8.1,Bán key bản quyền Window10 Pro và Enterprise
Bán key bản quyền Kaspersky cho Server và Client,Bitdefender,Trendmicro,Avast

Bán key bản quyền Exchange Server 2010 Standar và Enterprise
Bán key bản quyền Exchange Server 2013 Standar và Enterprise 
Bán key bản quyền SQL Server 2008 R2 Standar và Enterprise
Bán key bản quyền SQL Server 2012 R2 Standar và Enterprise 
Bán key bản quyền SharePoint Server 2010 Standar và Enterprise 
Bán key bản quyền SharePoint Server 2013 Standar và Enterprise  
Bán key bản quyền Visual Studio 2010  Standar Pro và Enterprise
Bán key bản quyền Visual Studio 2013 Standar Pro và Enterprise 
Bán key bản quyền Visio 2010 Standar Premium Pro
Bán key bản quyền Visio 2013 Standar Premium Pro
Hài Tết năm 2015 - Tôi đi tìm tôi Full HD Download ( đủ 2 phần ) Reviewed by Phùng Hữu Long on 1:34:00 PM Rating: 5 Hai tet 2015\Hài Tết 2015 - Tôi Đi Tìm Tôi Full HD Phần 1.mp4 Format                       ...

No comments: