Tổng hợp Video Clip hay nhất của ca sĩ Bằng Kiều - Mua Bán key bản quyền Windows Server 2012 - Windows 10 -Kaspersky - Office -Visio -SQL

728x90 AdSpace

http://lh3.ggpht.com/-PE2fb8WF1XI/VfL9f7IygsI/AAAAAAAAN-E/Fj9gFp7BZFo/s1600-r/Logo.png
Trending
Tuesday, February 10, 2015

Tổng hợp Video Clip hay nhất của ca sĩ Bằng Kiều



Format                                   : MPEG-4
Format profile                           : Base Media
Codec ID                                 : isom
File size                                : 116 MiB
Duration                                 : 6mn 10s
Overall bit rate mode                    : Constant
Overall bit rate                         : 2 630 Kbps
Writing application                      : Lavf54.59.106

Video
ID                                       : 1
Format                                   : MPEG-4 Visual
Format profile                           : Simple@L1
Format settings, BVOP                    : No
Format settings, QPel                    : No
Format settings, GMC                     : No warppoints
Format settings, Matrix                  : Default (H.263)
Codec ID                                 : 20
Duration                                 : 6mn 10s
Bit rate mode                            : Constant
Bit rate                                 : 2 495 Kbps
Width                                    : 720 pixels
Height                                   : 480 pixels
Display aspect ratio                     : 3:2
Frame rate mode                          : Constant
Frame rate                               : 29.970 fps
Standard                                 : NTSC
Color space                              : YUV
Chroma subsampling                       : 4:2:0
Bit depth                                : 8 bits
Scan type                                : Progressive
Compression mode                         : Lossy
Bits/(Pixel*Frame)                       : 0.241
Stream size                              : 110 MiB (95%)
Writing library                          : Lavc54.86.100

Audio
ID                                       : 2
Format                                   : AAC
Format/Info                              : Advanced Audio Codec
Format profile                           : LC
Codec ID                                 : 40
Duration                                 : 6mn 10s
Bit rate mode                            : Constant
Bit rate                                 : 128 Kbps
Channel count                            : 2 channels
Channel positions                        : Front: L R
Sampling rate                            : 44.1 KHz
Compression mode                         : Lossy
Stream size                              : 5.66 MiB (5%)

Buồn ơi chào mi.mp4
Chào mùa xuân mới.mp4
Chị tôi.mp4
Chiếc lá.mp4
Chờ người.mp4
Có phải e là mùa thu Hà Nội.mp4
Con gió thoảng-Trái tim tội lỗi.mp4
Dĩ vãng.mp4
E và tôi.mp4
E về tinh khôi BK_Phương Thanh.mp4
Em đi_BK-Tuấn Ngọc.mp4
Giờ thì a đã biết _BK-Minh Tuyết.mp4
Hát biển tình yếu.mp4
Hát cho người ra đi.mp4
Hát với chú ve con.mp4
Hãy nói với em.mp4
Hè muộn.mp4
Hoa tím ngoài sân.mp4
Lạc mất mùa xuân.mp4
Linh hồn đã mất.mp4
LK con gió thoảng-Trái tim tội lỗi-BK-Thanh Hà.mp4
Lối cũ ta về.mp4
Lời của gió.mp4
Một ngày mùa đông.mp4
Mưa trên ngày tháng đó.mp4
Ngõ vắng xôn xao.mp4
Người đi xa mãi.mp4
Những ngày đẹp đôi.mp4
Nơi mùa thu bắt đầu.mp4
Phút cuối.mp4
Tình khúc chiều mưa.mp4
Trái tim bên lề.mp4
Trái tim ko ngủ yên.mp4
Trao e trọn tình yêu.mp4
Và anh vẫn hát.mp4
Vá lại tình tôi.mp4
Yêu thương mong manh BK-Minh Tuyết.mp4


http://2.bp.blogspot.com/-kSOFggsYY-k/U7Fp7boH1zI/AAAAAAAAF48/Sisj5VAOQgw/s1600/Download+Key4VIP.info.png

Link 4Share.Vn:
http://up.4share.vn/d/5a696f6962636d6b

Nhiều DVD thêm tại:
http://up.4share.vn/d/4b787e787c7d737b

Tổng hợp Video Clip hay nhất của ca sĩ Bằng Kiều

Với Link GoogleDrive Bạn comment và để lại Email( là Gmail trong bài viết để chúng tôi Invite cho bạn tải,tránh vi phạm luật DMCA và bị xóa file).
www.Key4VIP.info bán Ac 4Share.Vn 1 năm không giới hạn BW,tải thoải mái. www.Key4VIP.info ~~~~~~~~~ Trang chia sẻ phần mềm,Video học quản trị mạng,Thủ thuật máy tính,đồ họa....Bán key phần mềm bản quyền Windows Server và các ứng dụng Server bảo hành Vĩnh Viễn.

Hãy Click vào nút G+1 và Like ở dưới đây để chúng tôi có THÊM ĐỘNG LỰC chia sẻ nhiều hơn nữa.

Tổng hợp Video Clip hay nhất của ca sĩ Bằng Kiều Reviewed by Phùng Hữu Long on 9:45:00 PM Rating: 5

No comments: