Tổng hợp DVD và Video Clip của ca sĩ Mạnh Quỳnh - Mua Bán key bản quyền Windows Server 2012 - Windows 10 -Kaspersky - Office -Visio -SQL

728x90 AdSpace

http://lh3.ggpht.com/-PE2fb8WF1XI/VfL9f7IygsI/AAAAAAAAN-E/Fj9gFp7BZFo/s1600-r/Logo.png
Trending
Tuesday, February 10, 2015

Tổng hợp DVD và Video Clip của ca sĩ Mạnh Quỳnh



Format                                   : MPEG-4
Format profile                           : Base Media
Codec ID                                 : isom
File size                                : 116 MiB
Duration                                 : 6mn 10s
Overall bit rate mode                    : Constant
Overall bit rate                         : 2 630 Kbps
Writing application                      : Lavf54.59.106

Video
ID                                       : 1
Format                                   : MPEG-4 Visual
Format profile                           : Simple@L1
Format settings, BVOP                    : No
Format settings, QPel                    : No
Format settings, GMC                     : No warppoints
Format settings, Matrix                  : Default (H.263)
Codec ID                                 : 20
Duration                                 : 6mn 10s
Bit rate mode                            : Constant
Bit rate                                 : 2 495 Kbps
Width                                    : 720 pixels
Height                                   : 480 pixels
Display aspect ratio                     : 3:2
Frame rate mode                          : Constant
Frame rate                               : 29.970 fps
Standard                                 : NTSC
Color space                              : YUV
Chroma subsampling                       : 4:2:0
Bit depth                                : 8 bits
Scan type                                : Progressive
Compression mode                         : Lossy
Bits/(Pixel*Frame)                       : 0.241
Stream size                              : 110 MiB (95%)
Writing library                          : Lavc54.86.100

Audio
ID                                       : 2
Format                                   : AAC
Format/Info                              : Advanced Audio Codec
Format profile                           : LC
Codec ID                                 : 40
Duration                                 : 6mn 10s
Bit rate mode                            : Constant
Bit rate                                 : 128 Kbps
Channel count                            : 2 channels
Channel positions                        : Front: L R
Sampling rate                            : 44.1 KHz
Compression mode                         : Lossy
Stream size                              : 5.66 MiB (5%)


10namdoicho.manhquynh.mp4
10namtaingo.manhquynh.mp4
Aikhoviai.manhquynh.mp4
Bendoidotrong.manhquynh.mp4
Beyeu.manhquynh.mp4
Buon.manhquynh.mp4
Camon.manhquynh.mp4
Chanhlong.manhquynh.mp4
Chicobanbethoi.manhquynh.mp4
Chimsaongayxua.manhquynh.mp4
Chutinh.manhquynh.mp4
Chuyenbuonngayxuan.manhquynh.mp4
Chuyenngayxua.manhquynh_quetrang.mp4
Chuyentinhnguoitrinhnutenthi.manhquynh.mp4
Chuyenxemientay.manhquynh.mp4
Cohangxom.manhquynh.mp4
Conhokhongem.manhquynh.mp4
Cungtatbiendong.manhquynh.mp4
Damcuoinguoita.manhquynh_nhathanh.mp4
Demcuoi(tanco).manhquynh_phinhung.mp4
Detraloimotcauhoi.manhquynh.mp4
Doancuoitinhyeu(tanco).manhquynh_phinhung.mp4
Donxuannaynhoxuanxua(tanco).manhquynh_phinhung.mp4
Duanhngheo.manhquynhphinhung.mp4
Dungnhacchuyenlong.manhquynh.mp4
Dutinhyeudamat.manhquynh.mp4
Embuonanhthuong.manhquynh.mp4
Emlatatca.manhquynh.mp4
Giatu.manhquynh.mp4
Giotycanhba.nhuquynhmanhquynh.mp4
Gocuatraitim.manhquynh.mp4
Haikyniemmotchuyendi.manhquynh.mp4
Hanhphucdonso.manhquynh.mp4
Hatnuadiem.manhquynh.mp4
Hinhbongquenha(tanco).manhquynhhuongthuy.mp4
Khongbaogioquenanh_dungnoixanhau.manhquynh_haphuong.mp4
Lienkhucbietdenbaogio_demtiendon.truongvu_manhquynh.mp4
Lienkhuclycafecuoicung_chungminhbadua.truongvu_manhquynh_manhdinh.mp4
Lienkhucmua.manhdinh_manhquynh_lamthuyvan.mp4

DVD2

Lienkhucngheo.truongvu_manhquynh_manhdinh.mp4
Linhtranmienxa.manhquynh.mp4
Linhxanha.manhquynh.mp4
Lydatgiong.manhquynh_phinhung.mp4
Motcannhamuon.manhquynh.mp4
Motnguoidi.manhquynh.mp4
Muaxuankhongconnua.manhquynh.mp4
Nguoigiaucungkho.manhquynh.mp4
Nguoigiautuongtu.manhquynh.mp4
Nguoinhapcuoc.manhquynh.mp4
Nhipcautriam.manhquynh.mp4
Nhonguoitinhphu.manhquynh.mp4
Nhungbuocchanamtham.manhquynh.mp4
Nhungdonluuniem.manhquynh.mp4
Noivoinguoitinh.manhquynh_mongngoc.mp4
Onglaido.manhquynh.mp4
Phaiduyenhayno.manhquynh_quetrang.mp4
Phuongtroixula.manhquynh_huongthuy.mp4
Saoemnodanhquen.manhquynh.mp4
Saoemvotinh.manhquynh.mp4
Tamanhkhonghon.manhquynh.mp4
Taoncongai.manhquynh.mp4
Thoi.manhquynh.mp4
Thuongmotnguoioxa.manhquynh.mp4
Thuongnhautrondoi.manhquynh.mp4
Thuyenhoa.manhquynh_thuyhang.mp4
Tinhcatrenlua.manhquynh_thuyhang.mp4
Tinhkynu.manhquynh.mp4
Tinhngheoconhau.manhquynh.mp4
Tinhtrongmua.manhquynh.mp4
Tudoembuon.manhquynh.mp4
Xintranonguoi.manhquynh.mp4
Yeunguoichungvach.manhquynh.mp4

http://2.bp.blogspot.com/-kSOFggsYY-k/U7Fp7boH1zI/AAAAAAAAF48/Sisj5VAOQgw/s1600/Download+Key4VIP.info.png

Link 4Share.Vn:
http://up.4share.vn/d/4b787e787c7d737b
Nhiều DVD thêm tại:
http://up.4share.vn/d/4b787e787c7d737b
Tổng hợp DVD và Video Clip của ca sĩ Mạnh Quỳnh Reviewed by Phùng Hữu Long on 9:51:00 PM Rating: 5 Format                                   : MPEG-4 Format profile                           : ...

No comments: