Tổng hợp DVD và Video Clip của ca sĩ Tuấn Vũ - Mua Bán key bản quyền Windows Server 2012 - Windows 10 -Kaspersky - Office -Visio -SQL

728x90 AdSpace

http://lh3.ggpht.com/-PE2fb8WF1XI/VfL9f7IygsI/AAAAAAAAN-E/Fj9gFp7BZFo/s1600-r/Logo.png
Trending
Tuesday, February 10, 2015

Tổng hợp DVD và Video Clip của ca sĩ Tuấn Vũ


Tổng hợp DVD và Video Clip của ca sĩ Tuấn Vũ


Format                                   : MPEG-4
Format profile                           : Base Media
Codec ID                                 : isom
File size                                : 116 MiB
Duration                                 : 6mn 10s
Overall bit rate mode                    : Constant
Overall bit rate                         : 2 630 Kbps
Writing application                      : Lavf54.59.106

Video
ID                                       : 1
Format                                   : MPEG-4 Visual
Format profile                           : Simple@L1
Format settings, BVOP                    : No
Format settings, QPel                    : No
Format settings, GMC                     : No warppoints
Format settings, Matrix                  : Default (H.263)
Codec ID                                 : 20
Duration                                 : 6mn 10s
Bit rate mode                            : Constant
Bit rate                                 : 2 495 Kbps
Width                                    : 720 pixels
Height                                   : 480 pixels
Display aspect ratio                     : 3:2
Frame rate mode                          : Constant
Frame rate                               : 29.970 fps
Standard                                 : NTSC
Color space                              : YUV
Chroma subsampling                       : 4:2:0
Bit depth                                : 8 bits
Scan type                                : Progressive
Compression mode                         : Lossy
Bits/(Pixel*Frame)                       : 0.241
Stream size                              : 110 MiB (95%)
Writing library                          : Lavc54.86.100

Audio
ID                                       : 2
Format                                   : AAC
Format/Info                              : Advanced Audio Codec
Format profile                           : LC
Codec ID                                 : 40
Duration                                 : 6mn 10s
Bit rate mode                            : Constant
Bit rate                                 : 128 Kbps
Channel count                            : 2 channels
Channel positions                        : Front: L R
Sampling rate                            : 44.1 KHz
Compression mode                         : Lossy
Stream size                              : 5.66 MiB (5%)



  1. A biết em đi chẳng trở về.mp4
  2. A về với em.mp4
  3. Ai cho tôi tình yêu.mp4
  4. Áo cưới màu hoa cà.mp4
  5. Áo em chưa mặc 1 lần.mp4
  6. Ba mùa mưa.mp4
  7. Bạc màu áo trận.mp4
  8. Bài ca kỷ niệm.mp4
  9. Bao đêm không ngủ.mp4
  10. Bé yêu.mp4
  11. Bốn màu áo.mp4
  12. Bông cỏ may.mp4
  13. Bỗng nhớ giáo đường.mp4
  14. Bướm trắng.mp4
  15. Buồn trong kỷ niệm.mp4
  16. Cánh buồm chuyển bến.mp4
  17. Cánh hoa Pensee.mp4
  18. Cây cầu dừa.mp4
  19. Chỉ mình thôi.mp4
  20. Chiếc áo bà ba.mp4
  21. Chiếc bóng bên đường.mp4
  22. Chieulangem.Tuanvu.mp4
  23. Chín tháng quân trường.mp4
  24. Cho người tình nhỏ.mp4
  25. Cho vừa lòng em.mp4
  26. Cho xin sống lại.mp4
  27. Chủ nhật buồn.mp4
  28. Chuyện 1 người đi.mp4
  29. Chuyện đêm mưa.mp4
  30. Chuyến đò không em.mp4
  31. Chuyện tình không suy tư.mp4
  32. Chuyện tình người đan áo.mp4
  33. Chuyện tình người thiếu nữa tên THI.mp4
  34. Cô hàng xóm.mp4
  35. Con đường mang tên em.mp4
  36. Con đường xưa em đi.mp4
  37. Còn thương rau đắng mọc sau hè.mp4
  38. Đám cười đầu xuân.mp4
  39. Đàn bà.mp4
  40. Đập vỡ cây đàn.mp4
  41. Đêm bơ vơ.mp4
  42. Đêm buồn phố thị.mp4
  43. Đêm buồn tình lẻ.mp4
  44. Đêm lang thang.mp4
  45. Đêm tâm sự.mp4
  46. Dĩ vãng buồn.mp4
  47. Đoạn tuyệt.mp4
  48. Đôi bóng.mp4
  49. Đôi mắt người xưa.mp4
  50. Đôi ngả chia ly.mp4
  51. Đồi thông 2 mộ.mp4
  52. Dư âm mùa giáng sinh.mp4
DVD 2.

  1. Dòng sông hẹn hò.mp4
  2. Đường tình đôi ngả.Tuanvu.Giaolinh.mp4
  3. Đường xư lối cũ.mp4
  4. Duyên tình.mp4
  5. Em về kẻo trời mưa.mp4
  6. Gapnhaulamngay.Tuanvu.Sontuyen.mp4
  7. Giận nhau 1 tuần.mp4
  8. Giọng ca dĩ vãng.mp4
  9. Gửi về em.mp4
  10. Hạ thương.mp4
  11. Hai mùa Noen.mp4
  12. Hai vì sao lạc.mp4
  13. Handoban.Chelinh.mp4
  14. Hàng trang giã từ.mp4
  15. Hoa vẫn nở trên đường quê hương.mp4
  16. Hoathuongnhoai.Huonglan.mp4
  17. Hongngumangtenem.Tuanvu.mp4
  18. Kể chuyện trong đêm.mp4
  19. Không bao giờ quên anh.mp4
  20. Kiếp cầm ca.mp4
  21. Kiếp đam mê.mp4
  22. Kỷ niệm.mp4
  23. Lầm lỡ.mp4
  24. Làng anh làng em.mp4
  25. Lạy Chúa con là người ngoại đạo.mp4
  26. Lời ca từ lòng đất.mp4
  27. Lối về đất Mẹ.mp4
  28. Mời năm tái ngộ.mp4
  29. Một chuyến bay đêm.mp4
  30. Một lần gặp em.mp4
  31. Một phút suy tư.mp4
  32. Mùa đông về chưa em.mp4
  33. Mưa qua phố vắng.mp4
  34. Neuchungminhcachtro.Chelinh.Phuongmai.mp4
  35. Nganthuvinhbiet.Tuanvu.mp4
  36. Ngày cưới em.mp4
  37. Ngày đó xa rồi.mp4
  38. Ngày đó.mp4
  39. Ngoại ô buồn.mp4
  40. Người phu kéo mo cau.mp4
  41. Nhật ký đời tôi.mp4
  42. Nhớ nhau hoài.mp4
  43. Như đã dấu yêu.mp4
  44. Những đồi hoa sim.mp4
  45. Những ngày xưa thân ái.mp4
  46. Nó và tôi.mp4
  47. Nỗi buồn sa mạc.mp4
  48. Phút đầu tiên.mp4
  49. Quá nửa đêm khuya.mp4
  50. Qua xóm nhỏ.mp4
DVD 3
  1. Giấc mơ địa đàng.mp4
  2. Giáo đường im bóng.mp4
  3. Hai đứa giận nhau.mp4
  4. Hoa mười giờ.mp4
  5. Lá diêu bông.mp4
  6. Liên khúc nếu chúng mình cách trở.mp4
  7. Liên khúc tàu đêm năm cũ.mp4
  8. Linh hồn tượng đá.mp4
  9. Lời người lính xa xôi.mp4
  10. Mưa đêm độc hành.mp4
  11. Rừng chưa thay lá.mp4
  12. Sân khấu và cuộc đời.mp4
  13. Sao chưa thấy hồi âm.mp4
  14. Tấm ảnh không hồn.mp4
  15. Tâm sự người hát nhạc buồn.mp4
  16. Thiệp hồng viết tên anh và em.mp4
  17. Thói đời.mp4
  18. Thuở ban đầu.mp4
  19. Thương quá Việt Nam.mp4
  20. Thuyền xa bến đỗ.mp4
  21. Tình kỹ nữa.mp4
  22. Tình như mây khói.mp4
  23. Tình ong bướm.mp4
  24. Tình thắm duyên quê.mp4
  25. Tình vẫn chưa yên.mp4
  26. Trăng tàn trên hè phố.mp4
  27. Trên đỉnh mùa đông.mp4
  28. Trở về cát bụi.mp4
  29. Vầng trăng suy tư.mp4
  30. Vọng gác đêm sương.mp4
  31. Xin đừng yêu tôi.mp4
  32. Xin gọi nhau là cố nhân.mp4
  33. Xin thời gian qua mau.mp4
  34. Xin trả lại thời gian.mp4
  35. Xin vẫy tay chào.mp4
  36. Yêu 1 mình.mp4
  37. Yêu 1 mình-Tuấn Vũ-Hương Lan.mp4
  38. Yêu người như thế đó.mp4
  39. Yêu Thầm.mp4

http://2.bp.blogspot.com/-kSOFggsYY-k/U7Fp7boH1zI/AAAAAAAAF48/Sisj5VAOQgw/s1600/Download+Key4VIP.info.png

Link 4Share.Vn:
http://up.4share.vn/d/4b787e787c7d737b

Nhiều DVD thêm tại:
http://up.4share.vn/d/4b787e787c7d737b
Tổng hợp DVD và Video Clip của ca sĩ Tuấn Vũ Reviewed by Phùng Hữu Long on 9:48:00 PM Rating: 5 Tổng hợp DVD và Video Clip của ca sĩ Tuấn Vũ Format                                   : M...

No comments: