Nhạc sàn cực mạnh - DJ Nonstop 2015 [SEXY GIRL] [Vietnamese] - Mua Bán key bản quyền Windows Server 2012 - Windows 10 -Kaspersky - Office -Visio -SQL

728x90 AdSpace

http://lh3.ggpht.com/-PE2fb8WF1XI/VfL9f7IygsI/AAAAAAAAN-E/Fj9gFp7BZFo/s1600-r/Logo.png
Trending
Saturday, April 11, 2015

Nhạc sàn cực mạnh - DJ Nonstop 2015 [SEXY GIRL] [Vietnamese]




General
Complete name                            : C:\DJ.VietNam-2015-Sexy.mp4
Format                                   : MPEG-4
Format profile                           : Base Media
Codec ID                                 : isom
File size                                : 1.16 GiB
Duration                                 : 1h 1mn
Overall bit rate mode                    : Variable
Overall bit rate                         : 2 693 Kbps
Encoded date                             : UTC 2015-03-12 11:30:08
Tagged date                              : UTC 2015-03-12 11:30:08
Writing application                      : Lavf54.59.106

Video
ID                                       : 1
Format                                   : AVC
Format/Info                              : Advanced Video Codec
Format profile                           : Baseline@L3.1
Format settings, CABAC                   : No
Format settings, ReFrames                : 2 frames
Codec ID                                 : avc1
Codec ID/Info                            : Advanced Video Coding
Duration                                 : 1h 1mn
Bit rate                                 : 2 500 Kbps
Width                                    : 1 280 pixels
Height                                   : 720 pixels
Display aspect ratio                     : 16:9
Frame rate mode                          : Constant
Frame rate                               : 29.970 fps
Color space                              : YUV
Chroma subsampling                       : 4:2:0
Bit depth                                : 8 bits
Scan type                                : Progressive
Bits/(Pixel*Frame)                       : 0.091
Stream size                              : 1.10 GiB (94%)
Writing library                          : x264 core 135
Encoding settings                        : cabac=0 / ref=2 / deblock=1:0:0 / analyse=0x1:0x111 / me=hex / subme=4 / psy=1 / psy_rd=1.00:0.00 / mixed_ref=0 / me_range=16 / chroma_me=1 / trellis=1 / 8x8dct=0 / cqm=0 / deadzone=21,11 / fast_pskip=1 / chroma_qp_offset=0 / threads=3 / lookahead_threads=1 / sliced_threads=0 / nr=0 / decimate=1 / interlaced=0 / bluray_compat=0 / constrained_intra=0 / bframes=0 / weightp=0 / keyint=250 / keyint_min=25 / scenecut=40 / intra_refresh=0 / rc_lookahead=20 / rc=abr / mbtree=1 / bitrate=2500 / ratetol=1.0 / qcomp=0.60 / qpmin=0 / qpmax=69 / qpstep=4 / ip_ratio=1.40 / aq=1:1.00
Encoded date                             : UTC 2015-03-12 11:30:08
Tagged date                              : UTC 2015-03-12 11:30:08

Audio
ID                                       : 2
Format                                   : AAC
Format/Info                              : Advanced Audio Codec
Format profile                           : LC
Codec ID                                 : 40
Duration                                 : 1h 1mn
Bit rate mode                            : Variable
Bit rate                                 : 151 Kbps
Maximum bit rate                         : 192 Kbps
Channel(s)                               : 2 channels
Channel positions                        : Front: L R
Sampling rate                            : 44.1 KHz
Compression mode                         : Lossy
Stream size                              : 66.8 MiB (6%)
Encoded date                             : UTC 2015-03-12 11:30:08
Tagged date                              : UTC 2015-03-12 11:30:08




http://2.bp.blogspot.com/-kSOFggsYY-k/U7Fp7boH1zI/AAAAAAAAF48/Sisj5VAOQgw/s1600/Download+Key4VIP.info.png

Link 4Share.Vn:
http://up.4share.vn/d/5162696961696762

Link OneDrive
http://1drv.ms/1D7wMm8
Link GoogleDrive
https://googledrive.com/host/0B6ifJw6_-20cfjRTLUZWLTRYaTdCWkpyRHdsa1lsanlVUTlZbm1tYVRzeUgteWhjSkw4ZWM




www.Key4VIP.info Bán key bản quyền Window Server 2003, Bán key bản quyền Window Server 2008 R2, Bán key bản quyền Window Server 2012 R2 Standar Enterprise WebEdition Datacenter Foundation Essentials bảo hành Vĩnh Viễn!
Bán key bản quyền Window 7,Bán key bản quyền Window 8.1,Bán key bản quyền Window10 Pro và Enterprise
Bán key bản quyền Kaspersky cho Server và Client,Bitdefender,Trendmicro,Avast
Support kỹ thuật và mua hàng,bảo hành . <===
Support kỹ thuật và mua hàng,bảo hành 2 .
( Yahoo chỉ dành để Support khách hàng )
Hướng dẫn mua License các bạn cũng có thể tham khảo tại www.Key4VIP.info
Hotline: 09.34.36.38.33 (Trước 22h)
Zalo: 0934.36.38.33
Email:CD4pro@gmail.com
CHÚNG TÔI chào mừng người có THIỆN CHÍ.
(Vui lòng không nhắn tin .Và Call nếu bạn không liên hệ qua Yahoo được.).Vui lòng Click vào đây trước khi bạn có ý muốn giao dịch với Key4VIP.info.Thân mến!Bán key bản quyền Exchange Server 2010 Standar và Enterprise
Bán key bản quyền Exchange Server 2013 Standar và Enterprise 
Bán key bản quyền SQL Server 2008 R2 Standar và Enterprise
Bán key bản quyền SQL Server 2012 R2 Standar và Enterprise 
Bán key bản quyền SharePoint Server 2010 Standar và Enterprise 
Bán key bản quyền SharePoint Server 2013 Standar và Enterprise  
Bán key bản quyền Visual Studio 2010  Standar Pro và Enterprise
Bán key bản quyền Visual Studio 2013 Standar Pro và Enterprise 
Bán key bản quyền Visio 2010 Standar Premium Pro
Bán key bản quyền Visio 2013 Standar Premium Pro
Nhạc sàn cực mạnh - DJ Nonstop 2015 [SEXY GIRL] [Vietnamese] Reviewed by Phùng Hữu Long on 11:26:00 PM Rating: 5 General Complete name                            : C:\DJ.VietNam-2015-Sexy.mp4 Format      ...

No comments: