Bộ Sưu Tập nhạc FLAC chất lượng cao Của Ca Sĩ Duy Khánh - Mua Bán key bản quyền Windows Server 2012 - Windows 10 -Kaspersky - Office -Visio -SQL

728x90 AdSpace

http://lh3.ggpht.com/-PE2fb8WF1XI/VfL9f7IygsI/AAAAAAAAN-E/Fj9gFp7BZFo/s1600-r/Logo.png
Trending
Friday, May 22, 2015

Bộ Sưu Tập nhạc FLAC chất lượng cao Của Ca Sĩ Duy Khánh

Bộ Sưu Tập nhạc FLAC Của Ca Sĩ Duy Khánh


Bộ Sưu Tập nhạc FLAC Của Ca Sĩ Duy Khánh


Dưới đây là thông tin của 1 disc, các bạn có thể qua phần File để coi danh sách đầy đủ.


 
Exact Audio Copy V0.99 prebeta 5 from 4. May 2009

EAC extraction logfile from 14. March 2010, 17:26

Duy Khanh / The Best of Duy Khanh - disc1

Used drive  : SONY    DVD RW DRU-830A   Adapter: 4  ID: 0

Read mode               : Secure
Utilize accurate stream : Yes
Defeat audio cache      : Yes
Make use of C2 pointers : No

Read offset correction                      : 6
Overread into Lead-In and Lead-Out          : No
Fill up missing offset samples with silence : Yes
Delete leading and trailing silent blocks   : No
Null samples used in CRC calculations       : Yes
Used interface                              : Native Win32 interface for Win NT & 2000
Gap handling                                : Appended to previous track

Used output format              : User Defined Encoder
Selected bitrate                : 768 kBit/s
Quality                         : High
Add ID3 tag                     : No
Command line compressor         : D:\Software\Exact Audio Copy v0.99 prebeta 2 -LegalTorrents\Exact Audio Copy v0.99 prebeta 2\Flac\flac.exe
Additional command line options : -8 -V -T "ARTIST=%a" -T "TITLE=%t" -T "ALBUM=%g" -T "DATE=%y" -T "TRACKNUMBER=%n" -T "GENRE=%m" -T "COMMENT=%e" %s -o %d


TOC of the extracted CD

    Track |   Start  |  Length  | Start sector | End sector
   ---------------------------------------------------------
       1  |  0:00.00 |  4:31.26 |         0    |    20350  
       2  |  4:31.26 |  6:05.09 |     20351    |    47734  
       3  | 10:36.35 |  5:46.40 |     47735    |    73724  
       4  | 16:23.00 |  4:31.07 |     73725    |    94056  
       5  | 20:54.07 |  4:11.21 |     94057    |   112902  
       6  | 25:05.28 |  5:59.41 |    112903    |   139868  
       7  | 31:04.69 |  4:21.56 |    139869    |   159499  
       8  | 35:26.50 |  4:09.07 |    159500    |   178181  
       9  | 39:35.57 |  4:52.23 |    178182    |   200104  
      10  | 44:28.05 |  5:51.01 |    200105    |   226430  
      11  | 50:19.06 |  4:30.00 |    226431    |   246680  
      12  | 54:49.06 |  3:34.07 |    246681    |   262737  


Track  1

    Filename D:\minhph's document\My Music\Would Burn\Duy Khanh - The Best of Duy Khanh - disc1 (2001)[FLAC]\01 -  Xin Anh Giu Tron Tinh Que.wav

    Pre-gap length  0:00:02.00

    Peak level 100.0 %
    Track quality 100.0 %
    Test CRC 494AA9B8
    Copy CRC 494AA9B8
    Copy OK

Track  2

    Filename D:\minhph's document\My Music\Would Burn\Duy Khanh - The Best of Duy Khanh - disc1 (2001)[FLAC]\02 - Ai Nho Chang Ai.wav

    Pre-gap length  0:00:02.00

    Peak level 100.0 %
    Track quality 100.0 %
    Test CRC F438B8A9
    Copy CRC F438B8A9
    Copy OK

Track  3

    Filename D:\minhph's document\My Music\Would Burn\Duy Khanh - The Best of Duy Khanh - disc1 (2001)[FLAC]\03 - Dem Trao Ky Niem.wav

    Pre-gap length  0:00:02.00

    Peak level 100.0 %
    Track quality 100.0 %
    Test CRC 46525254
    Copy CRC 46525254
    Copy OK

Track  4

    Filename D:\minhph's document\My Music\Would Burn\Duy Khanh - The Best of Duy Khanh - disc1 (2001)[FLAC]\04 -  Lay Me Con Di.wav

    Pre-gap length  0:00:02.00

    Peak level 100.0 %
    Track quality 100.0 %
    Test CRC E62C17E1
    Copy CRC E62C17E1
    Copy OK

Track  5

    Filename D:\minhph's document\My Music\Would Burn\Duy Khanh - The Best of Duy Khanh - disc1 (2001)[FLAC]\05 -  Mot Nguoi Di Xa.wav

    Pre-gap length  0:00:02.00

    Peak level 100.0 %
    Track quality 100.0 %
    Test CRC 5D5E62FB
    Copy CRC 5D5E62FB
    Copy OK

Track  6

    Filename D:\minhph's document\My Music\Would Burn\Duy Khanh - The Best of Duy Khanh - disc1 (2001)[FLAC]\06 -  Ngay Tro Ve.wav

    Pre-gap length  0:00:02.00

    Peak level 100.0 %
    Track quality 100.0 %
    Test CRC 8CBCFDAC
    Copy CRC 8CBCFDAC
    Copy OK

Track  7

    Filename D:\minhph's document\My Music\Would Burn\Duy Khanh - The Best of Duy Khanh - disc1 (2001)[FLAC]\07 - Con Duong Mang Ten Em.wav

    Pre-gap length  0:00:02.00

    Peak level 100.0 %
    Track quality 100.0 %
    Test CRC 2D25C842
    Copy CRC 2D25C842
    Copy OK

Track  8

    Filename D:\minhph's document\My Music\Would Burn\Duy Khanh - The Best of Duy Khanh - disc1 (2001)[FLAC]\08 - Chung Minh Ba Dua.wav

    Pre-gap length  0:00:02.00

    Peak level 100.0 %
    Track quality 100.0 %
    Test CRC 40CFE2EC
    Copy CRC 40CFE2EC
    Copy OK

Track  9

    Filename D:\minhph's document\My Music\Would Burn\Duy Khanh - The Best of Duy Khanh - disc1 (2001)[FLAC]\09 - Truong Cu Tinh Xua.wav

    Pre-gap length  0:00:02.00

    Peak level 100.0 %
    Track quality 100.0 %
    Test CRC 76CE9D32
    Copy CRC 76CE9D32
    Copy OK

Track 10

    Filename D:\minhph's document\My Music\Would Burn\Duy Khanh - The Best of Duy Khanh - disc1 (2001)[FLAC]\10 - Nguoi Yeu & Con Chim Sau Nho.wav

    Pre-gap length  0:00:02.00

    Peak level 100.0 %
    Track quality 100.0 %
    Test CRC 29629FFE
    Copy CRC 29629FFE
    Copy OK

Track 11

    Filename D:\minhph's document\My Music\Would Burn\Duy Khanh - The Best of Duy Khanh - disc1 (2001)[FLAC]\11 - Nhung Ngay Xua Than Ai.wav

    Pre-gap length  0:00:02.00

    Peak level 100.0 %
    Track quality 100.0 %
    Test CRC 0AAF30F6
    Copy CRC 0AAF30F6
    Copy OK

Track 12

    Filename D:\minhph's document\My Music\Would Burn\Duy Khanh - The Best of Duy Khanh - disc1 (2001)[FLAC]\12 - 24 Gio Phep.wav

    Pre-gap length  0:00:02.00

    Peak level 100.0 %
    Track quality 100.0 %
    Test CRC C2606774
    Copy CRC C2606774
    Copy OK


http://2.bp.blogspot.com/-kSOFggsYY-k/U7Fp7boH1zI/AAAAAAAAF48/Sisj5VAOQgw/s1600/Download+Key4VIP.info.png

Link 4Share.Vn:
http://4share.vn/d/586c69606a6d6e60


Link Google
Bạn thực hiện 2 điều sau.Chúng tôi invite link để các bạn tải ( Tránh vi phạm DMCA họ xóa File )

1.Like Fanpage:https://www.facebook.com/Key4VIP.info
2.Comment để lại Email:
Vui lòng thực hiện đầy đủ.



Bộ Sưu Tập nhạc FLAC Của Ca Sĩ Duy Khánh,Tổng hợp nhạc FLAC Duy Khánh,Duy Khánh Collection FLAC,Nhạc Duy Khánh Chất lượng cao,Tổng hợp nhạc FLAC Duy Khánh 4Share.vn,Tổng hợp nhạc FLAC Duy Khánh Fshare.Vn,Tổng hợp nhạc FLAC Duy Khánh torrent,




www.Key4VIP.info Bán key bản quyền Window Server 2003, Bán key bản quyền Window Server 2008 R2, Bán key bản quyền Window Server 2012 R2 Standar Enterprise WebEdition Datacenter Foundation Essentials bảo hành Vĩnh Viễn!
Bán key bản quyền Window 7,Bán key bản quyền Window 8.1,Bán key bản quyền Window10 Pro và Enterprise
Bán key bản quyền Kaspersky cho Server và Client,Bitdefender,Trendmicro,Avast
Support kỹ thuật và mua hàng,bảo hành . <===
Support kỹ thuật và mua hàng,bảo hành 2 .
( Yahoo chỉ dành để Support khách hàng )
Hướng dẫn mua License các bạn cũng có thể tham khảo tại www.Key4VIP.info
Hotline: 09.34.36.38.33 (Trước 22h)
Zalo: 0934.36.38.33
Email:CD4pro@gmail.com
CHÚNG TÔI chào mừng người có THIỆN CHÍ.
(Vui lòng không nhắn tin .Và Call nếu bạn không liên hệ qua Yahoo được.).Vui lòng Click vào đây trước khi bạn có ý muốn giao dịch với Key4VIP.info.Thân mến!Bán key bản quyền Exchange Server 2010 Standar và Enterprise
Bán key bản quyền Exchange Server 2013 Standar và Enterprise 
Bán key bản quyền SQL Server 2008 R2 Standar và Enterprise
Bán key bản quyền SQL Server 2012 R2 Standar và Enterprise 
Bán key bản quyền SharePoint Server 2010 Standar và Enterprise 
Bán key bản quyền SharePoint Server 2013 Standar và Enterprise  
Bán key bản quyền Visual Studio 2010  Standar Pro và Enterprise
Bán key bản quyền Visual Studio 2013 Standar Pro và Enterprise 
Bán key bản quyền Visio 2010 Standar Premium Pro
Bán key bản quyền Visio 2013 Standar Premium Pro
Bộ Sưu Tập nhạc FLAC chất lượng cao Của Ca Sĩ Duy Khánh Reviewed by Phùng Hữu Long on 6:06:00 PM Rating: 5 Bộ Sưu Tập nhạc FLAC Của Ca Sĩ Duy Khánh Dưới đây là thông tin của 1 disc, các bạn có thể...

1 comment: