Fist of Legend 1994 ViE mHD BluRay DD2.0 x264-Thuyết Minh - Tinh Võ Môn - Lý Liên Kiệt - Mua Bán key bản quyền Windows Server 2012 - Windows 10 -Kaspersky - Office -Visio -SQL

728x90 AdSpace

http://lh3.ggpht.com/-PE2fb8WF1XI/VfL9f7IygsI/AAAAAAAAN-E/Fj9gFp7BZFo/s1600-r/Logo.png
Trending
Saturday, May 30, 2015

Fist of Legend 1994 ViE mHD BluRay DD2.0 x264-Thuyết Minh - Tinh Võ Môn - Lý Liên Kiệt

Format : Matroska
Format version : Version 1
File size : 3.09 GiB
Duration : 1h 43mn
Overall bit rate : 4 283 Kbps
Encoded date : UTC 2013-11-28 05:02:48
Writing application : mkvmerge v2.4.0 ('Fumbling Towards Ecstasy') built on Oct 11 2008 20:13:15
Writing library : libebml v0.7.7 + libmatroska v0.8.1


Video
ID : 1
Format : AVC
Format/Info : Advanced Video Codec
Format profile : High@L3
Format settings, CABAC : No
Format settings, ReFrames : 1 frame
Codec ID : V_MPEG4/ISO/AVC
Duration : 1h 43mn
Bit rate : 3 870 Kbps
Width : 1 280 pixels
Height : 720 pixels
Display aspect ratio : 16:9
Frame rate mode : Constant
Frame rate : 23.976 fps
Color space : YUV
Chroma subsampling : 4:2:0
Bit depth : 8 bits
Scan type : Progressive
Bits/(Pixel*Frame) : 0.175
Stream size : 2.70 GiB (88%)
Default : Yes
Forced : No


Audio
ID : 2
Format : AC-3
Format/Info : Audio Coding 3
Mode extension : CM (complete main)
Format settings, Endianness : Big
Codec ID : A_AC3
Duration : 1h 43mn
Bit rate mode : Constant
Bit rate : 448 Kbps
Channel(s) : 2 channels
Channel positions : Front: L R
Sampling rate : 44.1 KHz
Bit depth : 16 bits
Compression mode : Lossy
Stream size : 331 MiB (10%)
Default : Yes
Forced : No 
  

Nội dung phim:
Bối cảnh là thành phố Thượng Hải năm 1937 trong thời kì chiến tranh Trung-Nhật lần thứ 2. Lúc này Thượng Hải đang bị quân Nhật chiếm đóng. Trần Chân, một công dân Thượng Hải, đang học tại Nhật thì nghe tin sư phụ của mình là Hoắc Nguyên Giáp, người đứng đầu Tinh võ môn, bị giết chết trong một trận thách đấu với một võ sĩ Nhật Bản. Trần Chân ngay lập tức trở về nước chịu tang thầy và tìm hiểu rõ sự việc. Tại Thượng Hải, sau khi về trường Tinh võ để chịu tang thầy, Trần Chân tìm tới nơi dạy võ của Akutagawa Ryoichi, võ sĩ Nhật đã giết chết Hoắc Nguyên Giáp.

Trailer:




http://2.bp.blogspot.com/-kSOFggsYY-k/U7Fp7boH1zI/AAAAAAAAF48/Sisj5VAOQgw/s1600/Download+Key4VIP.info.png

Link 4Share.Vn:
http://4share.vn/f/7a4e484a424b494c/Fist of Legend 1994 ViE mHD BluRay DD2.0 x264.mkv.file
Kho phim USLT,thuyết minh Update thường xuyên.
http://4share.vn/d/675355575050565e







www.Key4VIP.info Bán key bản quyền Window Server 2003, Bán key bản quyền Window Server 2008 R2, Bán key bản quyền Window Server 2012 R2 Standar Enterprise WebEdition Datacenter Foundation Essentials bảo hành Vĩnh Viễn!
Bán key bản quyền Window 7,Bán key bản quyền Window 8.1,Bán key bản quyền Window10 Pro và Enterprise
Bán key bản quyền Kaspersky cho Server và Client,Bitdefender,Trendmicro,Avast
Support kỹ thuật và mua hàng,bảo hành . <===
Support kỹ thuật và mua hàng,bảo hành 2 .
( Yahoo chỉ dành để Support khách hàng )
Hướng dẫn mua License các bạn cũng có thể tham khảo tại www.Key4VIP.info
Hotline: 09.34.36.38.33 (Trước 22h)
Zalo: 0934.36.38.33
Email:CD4pro@gmail.com
CHÚNG TÔI chào mừng người có THIỆN CHÍ.
(Vui lòng không nhắn tin .Và Call nếu bạn không liên hệ qua Yahoo được.).Vui lòng Click vào đây trước khi bạn có ý muốn giao dịch với Key4VIP.info.Thân mến!Bán key bản quyền Exchange Server 2010 Standar và Enterprise
Bán key bản quyền Exchange Server 2013 Standar và Enterprise 
Bán key bản quyền SQL Server 2008 R2 Standar và Enterprise
Bán key bản quyền SQL Server 2012 R2 Standar và Enterprise 
Bán key bản quyền SharePoint Server 2010 Standar và Enterprise 
Bán key bản quyền SharePoint Server 2013 Standar và Enterprise  
Bán key bản quyền Visual Studio 2010  Standar Pro và Enterprise
Bán key bản quyền Visual Studio 2013 Standar Pro và Enterprise 
Bán key bản quyền Visio 2010 Standar Premium Pro
Bán key bản quyền Visio 2013 Standar Premium Pro
Fist of Legend 1994 ViE mHD BluRay DD2.0 x264-Thuyết Minh - Tinh Võ Môn - Lý Liên Kiệt Reviewed by Phùng Hữu Long on 8:55:00 AM Rating: 5 Format : Matroska Format version :...

No comments: