Demi Gods And Semi Devils 2004 ViE HDTV DD2.0 x264 - Thiên Long Bát Bộ - Thuyết Minh - Mua Bán key bản quyền Windows Server 2012 - Windows 10 -Kaspersky - Office -Visio -SQL

728x90 AdSpace

http://lh3.ggpht.com/-PE2fb8WF1XI/VfL9f7IygsI/AAAAAAAAN-E/Fj9gFp7BZFo/s1600-r/Logo.png
Trending
Saturday, May 30, 2015

Demi Gods And Semi Devils 2004 ViE HDTV DD2.0 x264 - Thiên Long Bát Bộ - Thuyết Minh


Demi Gods And Semi Devils 2004 ViE HDTV DD2.0 x264 - Thiên Long Bát Bộ - Thuyết Minh

THIÊN LONG BÁT BỘ 2004
Demi Gods And Semi Devils (2004)
Status:40-End
Đạo diễn:Updating...
Diễn viên:Lâm Chí Dĩnh, Lưu Diệc Phi, Hồ Quân, Cao Hổ, Trần Hảo
Thể loại:Phim Cổ Trang
Thời lượng:40 Tập

Quốc gia:Phim Trung Quốc
 Complete name                            : D:\Film VIE\Thiên Long Bát Bộ 2004 Bản Đẹp Thuyết Minh\Demi Gods And Semi Devils (2004)_Ghost0bk_Tap01.mkv
Format                                   : Matroska
Format version                           : Version 4 / Version 2
File size                                : 931 MiB
Duration                                 : 41mn 29s
Overall bit rate                         : 3 137 Kbps
Encoded date                             : UTC 2013-10-06 09:49:56
Writing application                      : mkvmerge v6.4.1 ('Omega Point') built on Sep 16 2013 22:05:10
Writing library                          : libebml v1.3.0 + libmatroska v1.4.1

Video
ID                                       : 1
Format                                   : AVC
Format/Info                              : Advanced Video Codec
Format profile                           : High@L3.0
Format settings, CABAC                   : No
Format settings, ReFrames                : 1 frame
Codec ID                                 : V_MPEG4/ISO/AVC
Duration                                 : 41mn 29s
Bit rate                                 : 2 306 Kbps
Width                                    : 1 280 pixels
Height                                   : 720 pixels
Display aspect ratio                     : 16:9
Frame rate mode                          : Constant
Frame rate                               : 25.000 fps
Color space                              : YUV
Chroma subsampling                       : 4:2:0
Bit depth                                : 8 bits
Scan type                                : Progressive
Bits/(Pixel*Frame)                       : 0.100
Stream size                              : 685 MiB (74%)
Title                                    : CHN
Language                                 : Chinese
Default                                  : Yes
Forced                                   : No

Audio #1
ID                                       : 2
Format                                   : AC-3
Format/Info                              : Audio Coding 3
Mode extension                           : CM (complete main)
Format settings, Endianness              : Big
Codec ID                                 : A_AC3
Duration                                 : 41mn 29s
Bit rate mode                            : Constant
Bit rate                                 : 384 Kbps
Channel(s)                               : 6 channels
Channel positions                        : Front: L C R, Side: L R, LFE
Sampling rate                            : 48.0 KHz
Bit depth                                : 16 bits
Compression mode                         : Lossy
Stream size                              : 114 MiB (12%)
Title                                    : VN
Language                                 : Vietnamese
Default                                  : Yes
Forced                                   : No
 
 Nội dung phim Thiên Long Bát Bộ 2004:
Câu chuyện xoay quanh mối quan hệ phức tạp giữa nhiều nhân vật đến từ nhiều nước khác nhau: Kiều

Phong, Đoàn Dự, Hư Trúc. Đây là bản phim của Trung Quốc do Hồ Quân , Lâm Chí Dĩnh và Cao Hổ đóng

vai chính, được đánh giá là bản phim hoàn hảo nhất
Kiều Phong là người trong Cái Bang. Với võ công cao cường và nhiều công trạng, dần dần uy tín của

chàng lên cao. Khi bang chủ Cái Bang qua đời, chàng được phong làm bang chủ Cái Bang. Lúc này

trong giang hồ có câu nói Bắc Kiều Phong, Nam Mộ Dung để nói rằng uy tín của Kiều Phong đã nổi

khắp miền Trung Nguyên.Trong một lần khi các trưởng lão muốn phế chức bang chủ của chàng, Kiều

Phong đã biết được nguồn gốc thật của mình. Ba mươi năm về trước, cha của chàng Tiêu Viễn Sơn bị

mai phục bởi các cao thủ võ lâm nước Tống tại Nhạn Môn Quan, vợ bị giết hại, ông phải nhảy xuống

vực tự vẫn.
Đoàn Dự là một chàng trai khôi ngô, tuấn tú, hoàng tử của nước Đại Lý. Tuy là con nhà võ nhưng

không thích luyện tập võ nghệ mà chỉ thích ngao du sơn thủy. Tình cờ trong quá trình can thiệp để

giải cứu Chung Linh cô nương, Đoàn Dự lọt vào một hang đá, lấy được bí kíp về Bắc Minh Thần

Công.Sau đó Đoàn Dự bị Hòa thượng Cưu Ma Trí nước Thổ Phồn bắt tới Cô Tô vì Đoàn Dự biết Lục Mạch

thần kiếm và hắn muốn hỏa thiêu chàng để cúng Mộ Dung Bác, bằng hữu lâu năm của hắn. Chính ở đất

Cô Tô này Đoàn Dự đã gặp Vương Ngữ Yên và yêu nàng. Nhưng thật trớ trêu, Vương Ngữ Yên chỉ yêu

mỗi Mộ Dung Phục. Sau này khi Mộ Dung Phục vì muốn khôi phục nước Yên đã bỏ nàng nên Đoàn Dự và

Vương Ngũ Yên đã đến bên nhau. Cuối cùng, Đoàn Dự trở thành vua Đại Lý và Vương Ngữ Yên trở thành

hoàng hậu.
Hư Trúc là một hòa thượng chùa Thiếu Lâm. Ngoại hình rất xấu trai nhưng tốt bụng. Hư Trúc đã vô

tình giải được một bàn cờ vây tên gọi "Trân Lung", 30 năm nay chưa ai giải được, vì thế nên đã

được Vô Nhai Tử, chưởng môn của phái Tiêu Dao truyền 70 năm công lực cả đời của ông. Vô Nhai Tử

muốn Hư Trúc dùng nội công của ông truyền cho đi giết Đinh Xuân Thu, nhưng Hư Trúc từ chối vì

nghĩ mình là một hòa thượng, không thể giết người bừa bãi. Sau đó, ông truyền chức chưởng môn

nhân và giao thiết chỉ hoàn cho Hư Trúc, nhưng Hư Trúc không dám nhận và cũng không muốn đầu nhập

phái khác. Vì thấy ông sau khi truyền cho mình 70 năm công lực cả đời, có vẻ như ông sắp chết, Hư

Trúc muốn ông ra đi trong thanh thản nên Hư Trúc đã đồng ý làm chưởng môn nhân phái Tiêu Dao cũng


như đồng ý đi giết Đinh Xuân Thu. Sau khi Hư Trúc đồng ý, Vô Nhai Tử qui tiên.





http://2.bp.blogspot.com/-kSOFggsYY-k/U7Fp7boH1zI/AAAAAAAAF48/Sisj5VAOQgw/s1600/Download+Key4VIP.info.png

Link 4Share.Vn:
http://4share.vn/d/380c0a08000c0b08
Kho phim USLT,thuyết minh Update thường xuyên.

http://4share.vn/d/675355575050565e








www.Key4VIP.info Bán key bản quyền Window Server 2003, Bán key bản quyền Window Server 2008 R2, Bán key bản quyền Window Server 2012 R2 Standar Enterprise WebEdition Datacenter Foundation Essentials bảo hành Vĩnh Viễn!
Bán key bản quyền Window 7,Bán key bản quyền Window 8.1,Bán key bản quyền Window10 Pro và Enterprise
Bán key bản quyền Kaspersky cho Server và Client,Bitdefender,Trendmicro,Avast

Support kỹ thuật và mua hàng,bảo hành . <===
Support kỹ thuật và mua hàng,bảo hành 2 .
( Yahoo chỉ dành để Support khách hàng )
Hướng dẫn mua License các bạn cũng có thể tham khảo tại www.Key4VIP.info
Hotline: 09.34.36.38.33 (Trước 22h)
Zalo: 0934.36.38.33
Email:CD4pro@gmail.com
CHÚNG TÔI chào mừng người có THIỆN CHÍ.
(Vui lòng không nhắn tin .Và Call nếu bạn không liên hệ qua Yahoo được.).Vui lòng Click vào đây trước khi bạn có ý muốn giao dịch với Key4VIP.info.Thân mến!Bán key bản quyền Exchange Server 2010 Standar và Enterprise
Bán key bản quyền Exchange Server 2013 Standar và Enterprise 
Bán key bản quyền SQL Server 2008 R2 Standar và Enterprise
Bán key bản quyền SQL Server 2012 R2 Standar và Enterprise 
Bán key bản quyền SharePoint Server 2010 Standar và Enterprise 
Bán key bản quyền SharePoint Server 2013 Standar và Enterprise  
Bán key bản quyền Visual Studio 2010  Standar Pro và Enterprise
Bán key bản quyền Visual Studio 2013 Standar Pro và Enterprise 
Bán key bản quyền Visio 2010 Standar Premium Pro
Bán key bản quyền Visio 2013 Standar Premium Pro
Demi Gods And Semi Devils 2004 ViE HDTV DD2.0 x264 - Thiên Long Bát Bộ - Thuyết Minh Reviewed by Phùng Hữu Long on 2:28:00 PM Rating: 5 Demi Gods And Semi Devils 2004 ViE HDTV DD2.0 x264 - Thiên Long Bát Bộ - Thuyết Minh THIÊN L...

No comments: